View Single Post
  #4  
Old Jul 16, 2007, 12:34 PM
BillyG BillyG is offline
Newbie
 
Join Date: Jul 2007
Posts: 3
Default

Quote:
Originally Posted by smobius
Ok,

This is actually alot easier than I had originally thought. The 1st step is to convert all of your MP3s to WAV files and replace them in the directory you will be working in. Now you must sit down and write a .cue file in order to get the burning program to create a multisession burn with both your data and the sound files. Name the .cue file anything you like and edit it in Wordpad or Notepad.

For example I named mine BurnMe.cue and the text look like this:

FILE "d:\NeoGeoBurnTemp\Metal Slug 2 - Track 01.iso" BINARY
TRACK 01 MODE1/2048
INDEX 01 00:00:00
FILE "d:\NeoGeoBurnTemp\Metal Slug 2 - Track 02.wav" WAVE
TRACK 02 AUDIO
PREGAP 00:02:00
INDEX 01 00:00:00
FILE "d:\NeoGeoBurnTemp\Metal Slug 2 - Track 03.wav" WAVE
TRACK 03 AUDIO
INDEX 01 00:00:00
FILE "d:\NeoGeoBurnTemp\Metal Slug 2 - Track 04.wav" WAVE
TRACK 04 AUDIO
INDEX 01 00:00:00
FILE "d:\NeoGeoBurnTemp\Metal Slug 2 - Track 05.wav" WAVE
TRACK 05 AUDIO
INDEX 01 00:00:00
etc, etc....

And that is really just about it. Once you have listed all the sounds files to be burned onto the disc, just save it and run the .cue file with Nero burning rom. Nero will then decode the .ISO file for you and then slap the audio onto tracks afterwards.

I have fully tested this and it works great. Enjoy!
Hi [B]smobius[/B]

When you burned the image on CD with Nero, did you have to burn it at certain speed? or do you have to burn it at 4x or slower like someone else stated in another thread? Because my CD writer's lowest speed is 8x & I'm having trouble finding an old cd writer, thanks to anyone who can answer my questions