CDROM-Guide forums

Go Back   CDROM-Guide forums > Main Forums > Mac User
FAQ Calendar Mark Forums Read
Open   CSec   Data   DevDrv   CoOp   Audio   CDRW   CDG   VCD   DVD   HD DVD   Mac   VGB   PS2   DC   Xbox  


 
 
Thread Tools Display Modes
  #1  
Old Nov 13, 2004, 11:04 AM
sebastieng sebastieng is offline
Junior Member
 
Join Date: Nov 2002
Posts: 12
Default burning sega mega cd backup on osx

sponsored links

 
Hello,

I have a backup of a sega mega cd game that I want to burn,it's made of an iso data track and few MP3 tracks.
Normally pc users use a programm call sega cue creator, tham burn the cue and all the files with nero. I tryed to make the cue file with vpc than burn it with toast, it doesnt work. I try also to make an iso image with nero (VPC) and burn it again with toast, also dosent work, in the 2 case i can play the game but the audio tracks are not in the game.

How can I burn a sega mega cd backup (iso and mp3 tracks to play it on mega cd) with a mac (osx.3.6) ?
Thanks

Here is the .cue created on vpc with sega cue creator, it can help to see the structure :

FILE "xxxxxx.iso" BINARY
TRACK 01 MODE1/2048
INDEX 01 00:00:00
POSTGAP 00:02:00

FILE "xxxxxxx 02.mp3" MP3
TRACK 02 AUDIO
PREGAP 00:02:00
INDEX 01 00:00:00

FILE "xxxxxxx 03.mp3" MP3
TRACK 03 AUDIO
INDEX 01 00:00:00

FILE "xxxxxxx 04.mp3" MP3
TRACK 04 AUDIO
INDEX 01 00:00:00

FILE "xxxxxxx 05.mp3" MP3
TRACK 05 AUDIO
INDEX 01 00:00:00

FILE "xxxxxxx 06.mp3" MP3
TRACK 06 AUDIO
INDEX 01 00:00:00

FILE "xxxxxxx 07.mp3" MP3
TRACK 07 AUDIO
INDEX 01 00:00:00
  #2  
Old Nov 16, 2004, 03:28 AM
Mac Nut Mac Nut is offline
Newbie
 
Join Date: Nov 2004
Posts: 2
Cool Easy backups

If it's just a straight copy, try using Toast 6.
Go to the copy tab after inserting your disc, and from one of the top menus, choose save as disc image.

When it's complete, it will mount on the desktop, (if that's set in your preferences). Then you just Control Click on the file, choose Toast it and burn it onto your blank media.

Voila
  #3  
Old Nov 16, 2004, 07:54 AM
sebastieng sebastieng is offline
Junior Member
 
Join Date: Nov 2002
Posts: 12
Default burning mega cd

I dont think it's so easy, the megacd games are usually mixed node cd with data and music.
  #4  
Old Jun 27, 2005, 09:59 PM
rabbitpants rabbitpants is offline
Newbie
 
Join Date: Jun 2005
Posts: 3
Default

I am having this same problem with Neo Geo CD games files.

...
Do not post to old threads. Create a new thread.

webmaster

Last edited by webmaster; Jul 27, 2005 at 10:54 AM.
 

Thread Tools
Display Modes

Posting Rules
You may not post new threads
You may not post replies
You may not post attachments
You may not edit your posts

BB code is On
Smilies are On
[IMG] code is On
HTML code is Off


Similar Threads
Thread Thread Starter Forum Replies Last Post
Mac guide on how to backup PS2/PSX games PS24LIFE Mac User 7 Oct 11, 2011 11:25 AM
Help on burning a backup from a backup Hellfromabove Dreamcast 4 Feb 16, 2002 03:08 AM
Problems Burning A Copy Of My Nba2k2 Backup flipmo23 Dreamcast 1 Feb 10, 2002 05:01 PM
Need Help Burning Backup to Backup! snakerain5 Dreamcast 3 Feb 02, 2002 08:18 PM
Burning a Backup for Madden 2002 Abyss52 Legacy Game Backup 4 Jan 28, 2002 06:50 PM


All times are GMT -5. The time now is 05:57 PM.



Powered by vBulletin® Version 3.8.4
Copyright ©2000 - 2017, Jelsoft Enterprises Ltd.
Copyright 1996-2009 CDROM-Guide.com. All rights reserved