CDROM-Guide forums

Go Back   CDROM-Guide forums > Main Forums > Legacy Game Backup > Dreamcast
FAQ Calendar Mark Forums Read
Open   CSec   Data   DevDrv   CoOp   Audio   CDRW   CDG   VCD   DVD   HD DVD   Mac   VGB   PS2   DC   Xbox  


 
 
Thread Tools Display Modes
  #1  
Old May 27, 2006, 11:52 AM
sCHRIZOO sCHRIZOO is offline
Member
 
Join Date: Mar 2005
Posts: 85
Default making a cue sheet for an iso help

sponsored links

 
Hi, Ive got 20 mp3s and an iso I need to make a cue sheet for this. This iso is good if I just burn the iso and use the boot disc (neo cd sdl) the game works but I would like some sound that's why I need the cue sheet, to put in the mp3s. My notepad program got replaced with wordpad somehow. I tried to write one but no luck.
Does it matter if it's note or wordpad? I also tried to use a program to do it but it only supported bin and cue not iso and cue. Sega cue maker is apparently a good program to do this but the ones I saw were for saturn not dreamcast. I'm still looking for this program.

I tried to use someone elses cue who had similar problems but no luck.
here is what I tried

FILE "Metal Slug - Track 01.iso" BINARY
TRACK 01 MODE1/2048
INDEX 01 00:00:00
FILE "Metal Slug - Track 02.mp3" MP3
TRACK 02 AUDIO
PREGAP 00:03:00
INDEX 01 00:00:00
FILE "Metal Slug - Track 03.mp3" MP3
TRACK 03 AUDIO
INDEX 01 00:00:00
FILE "Metal Slug - Track 04.mp3" MP3
TRACK 04 AUDIO
INDEX 01 00:00:00
FILE "Metal Slug - Track 05.mp3" MP3
TRACK 05 AUDIO
INDEX 01 00:00:00
FILE "Metal Slug - Track 06.mp3" MP3
TRACK 06 AUDIO
INDEX 01 00:00:00
FILE "Metal Slug - Track 07.mp3" MP3
TRACK 07 AUDIO
PREGAP 00:03:00
INDEX 01 00:00:00
FILE "Metal Slug - Track 08.mp3" MP3
TRACK 08 AUDIO
INDEX 01 00:00:00
FILE "Metal Slug - Track 09.mp3" MP3
TRACK 09 AUDIO
INDEX 01 00:00:00
FILE "Metal Slug - Track 10.mp3" MP3
TRACK 10 AUDIO
INDEX 01 00:00:00
FILE "Metal Slug - Track 11.mp3" MP3
TRACK 11 AUDIO
INDEX 01 00:00:00
FILE "Metal Slug - Track 12.mp3" MP3
TRACK 12 AUDIO
PREGAP 00:03:00
INDEX 01 00:00:00
FILE "Metal Slug - Track 13.mp3" MP3
TRACK 13 AUDIO
INDEX 01 00:00:00
FILE "Metal Slug - Track 14.mp3" MP3
TRACK 14 AUDIO
INDEX 01 00:00:00
FILE "Metal Slug - Track 15.mp3" MP3
TRACK 15 AUDIO
INDEX 01 00:00:00
FILE "Metal Slug - Track 16.mp3" MP3
TRACK 16 AUDIO
INDEX 01 00:00:00
FILE "Metal Slug - Track 17.mp3" MP3
TRACK 17 AUDIO
PREGAP 00:03:00
INDEX 01 00:00:00
FILE "Metal Slug - Track 18.mp3" MP3
TRACK 18 AUDIO
INDEX 01 00:00:00
FILE "Metal Slug - Track 19.mp3" MP3
TRACK 19 AUDIO
INDEX 01 00:00:00
FILE "Metal Slug - Track 20.mp3" MP3
TRACK 20 AUDIO
INDEX 01 00:00:00

any suggestions? Help is greatly appreciated thankyou
  #2  
Old Aug 15, 2006, 08:38 AM
dabinbin dabinbin is offline
Newbie
 
Join Date: Aug 2006
Posts: 3
Default

write "mp3" to "wav"
  #3  
Old Sep 29, 2006, 01:26 AM
sCHRIZOO sCHRIZOO is offline
Member
 
Join Date: Mar 2005
Posts: 85
Default

which program should I use?

mp3 to wav put it on a cue sheet and burn right?
 

Thread Tools
Display Modes

Posting Rules
You may not post new threads
You may not post replies
You may not post attachments
You may not edit your posts

BB code is On
Smilies are On
[IMG] code is On
HTML code is Off


Similar Threads
Thread Thread Starter Forum Replies Last Post
making a ISO with Bin and CUE ? PS24LIFE Mac User 0 Dec 31, 2004 04:29 PM
Craxtion 4.0 problem sydd Video Game Backup - Xbox 4 Oct 31, 2004 04:27 AM
Making Image & Cue Sheet From Mp3s -=Swapper==- Audio CDs & MP3 0 Sep 02, 2003 08:26 AM
Full Tutorial on all ISO Softwares with command line Alexoi Video Game Backup - Xbox 3 Jan 10, 2003 08:50 PM
Invalid CUE sheet command buddyslack01 Legacy Game Backup 3 Apr 28, 2002 05:12 PM


All times are GMT -5. The time now is 01:25 PM.



Powered by vBulletin® Version 3.8.4
Copyright ©2000 - 2017, Jelsoft Enterprises Ltd.
Copyright 1996-2009 CDROM-Guide.com. All rights reserved