CDROM-Guide forums

Go Back   CDROM-Guide forums > Main Forums > Video Game Backup - PS2
FAQ Calendar Mark Forums Read
Open   CSec   Data   DevDrv   CoOp   Audio   CDRW   CDG   VCD   DVD   HD DVD   Mac   VGB   PS2   DC   Xbox  


 
 
Thread Tools Display Modes
  #1  
Old Nov 08, 2002, 01:49 AM
TIME2PLAYDAGAME TIME2PLAYDAGAME is offline
Member
 
Join Date: Oct 2002
Location: New York
Posts: 135
Default How to burn just .bin with CDRwin?

sponsored links

 
I heard that CDRwin can burn .bin files as well? I happen to have a game that's just a .bin and i wanna burn it. But im not sure what settings i should set in CDRwin? Someone told me to "load track" instead of the .cue sheet, but i wound up burning a coaster. I got that damn red screen!

Im thinking it was my settings. So what should my settings be on CDRwin, to burn a .bin file? Or do i really need to use DiskJuggler?

P.S. I burned a coaster with DiskJuggler as well burning the .bin

Any help would be appreciated....Thanx

----------------------------------------------------
PS2 Specs:
30001R
Date Code 1c
V4(no gap)
Red Magic 2R No Swap Mod
  #2  
Old Nov 08, 2002, 01:56 AM
bustONE88 bustONE88 is offline
Senior Member
 
Join Date: Aug 2001
Location: INGLEWOOD, CA
Posts: 385
Default

i think that you need to make a cue sheet and load that in. didnt the bin come with a cue sheet? if not just make one up in note pad. this is an example:

FILE "KAL-THP4.BIN" BINARY
TRACK 01 MODE2/2352
INDEX 01 00:00:00

just replace KAL-THP4.BIN with the bin your trying to burn.

ps. you also got to put where the file is located like mine would be:

FILE "C:\WINDOWS\Desktop\Robz ****\KAL-THP4.BIN" BINARY
TRACK 01 MODE2/2352
INDEX 01 00:00:00
then just load that in cdrwin.

Last edited by bustONE88; Nov 08, 2002 at 01:59 AM.
  #3  
Old Nov 08, 2002, 03:32 AM
gh0zt gh0zt is offline
Senior Member
 
Join Date: Nov 2001
Location: san jose, ca.
Posts: 310
Default

you can use discjuggler also. you would have to put the drop down menu to "all files" then load your .bin and burn. no need to change the settings.
  #4  
Old Nov 08, 2002, 07:24 AM
TIME2PLAYDAGAME TIME2PLAYDAGAME is offline
Member
 
Join Date: Oct 2002
Location: New York
Posts: 135
Default

Aiight i did what you said, but i got an error when loading the cue sheet. It says illegal cue sheet command line 1 or something. I dunno what to do? The reason im even doing this, is because i had the same problem with the .cue that came with the .bin of this game.

So what next now? Should i just give up? LoL
  #5  
Old Nov 08, 2002, 07:53 AM
richbambam richbambam is offline
Senior Member
 
Join Date: Nov 2001
Location: Loughborough,Leicester,England
Posts: 381
Default

Like what gh0zt said you can use discjuggler,i use it all the time for bin files no need to create a cue file
works everytime
  #6  
Old Nov 08, 2002, 01:37 PM
gh0zt gh0zt is offline
Senior Member
 
Join Date: Nov 2001
Location: san jose, ca.
Posts: 310
Default

if you really want to use the cue sheet it must look like this

FILE "name.bin" BINARY
TRACK 01 MODE2/2352
INDEX 01 00:00:00

replace "name" with the name of your bin. the other cue sheet didn't work because it looks for the .bin in that specific place, probably not even on your computer. if you do it the way i did abobe it searches your whole computer for the .bin. that is probably why you got illegal cue sheet error.
 

Thread Tools
Display Modes

Posting Rules
You may not post new threads
You may not post replies
You may not post attachments
You may not edit your posts

BB code is On
Smilies are On
[IMG] code is On
HTML code is Off


Similar Threads
Thread Thread Starter Forum Replies Last Post
how can i burn a .bin PSX rom lie8 Open to All Computer Related Topics 1 Dec 24, 2003 08:14 AM
burning .bin or .cue file with nti dvd-maker baboyizm DVD 2 Oct 14, 2003 09:47 AM
How do I burn playstation2 iso's with cdrwin nethusla4 Video Game Backup - PS2 0 Sep 25, 2002 10:36 PM
what can i use to burn ps2 isos aside from cdrwin? Syxx103 Video Game Backup - PS2 6 Jun 02, 2002 02:33 AM
PS2 burn CDRWIN Settings gamefreakx Video Game Backup - PS2 1 May 26, 2002 06:02 AM


All times are GMT -5. The time now is 10:58 AM.



Powered by vBulletin® Version 3.8.4
Copyright ©2000 - 2018, Jelsoft Enterprises Ltd.
Copyright 1996-2009 CDROM-Guide.com. All rights reserved