CDROM-Guide forums

Go Back   CDROM-Guide forums > Main Forums > Legacy Game Backup > Dreamcast
FAQ Calendar Mark Forums Read
Open   CSec   Data   DevDrv   CoOp   Audio   CDRW   CDG   VCD   DVD   HD DVD   Mac   VGB   PS2   DC   Xbox  


 
 
Thread Tools Display Modes
  #1  
Old Jul 09, 2002, 12:55 PM
Lee2929 Lee2929 is offline
Newbie
 
Join Date: Apr 2002
Posts: 6
Default burning withe cdrwin gives me a coaster( game soul reaver legacy kain)

sponsored links

 
sayes in cdrwin

Warining Disc layout cotanins one or more tracks that are shorter then 4
seconds. This is a violation of the CD-ROM specification.

i continued all ready and all i got was a coaster , also converted it
from bin to iso and use padus to burn it and yet another coaster is made

heres what the *.cue file looks like
FILE "LK-SR.BIN" BINARY
TRACK 01 MODE1/2048
INDEX 01 00:00:00
TRACK 02 AUDIO
PREGAP 00:02:00
INDEX 01 63:08:67
TRACK 03 AUDIO
INDEX 00 63:10:67
INDEX 01 63:12:67
TRACK 04 AUDIO
INDEX 00 63:18:68
INDEX 01 63:20:68

any idea on what i'am doing wrong


thanks lee
 

Thread Tools
Display Modes

Posting Rules
You may not post new threads
You may not post replies
You may not post attachments
You may not edit your posts

BB code is On
Smilies are On
[IMG] code is On
HTML code is Off


Similar Threads
Thread Thread Starter Forum Replies Last Post
need help legacy of kain soul reaver Assman Dreamcast 5 Jun 16, 2003 05:59 PM
Game not burning (cdrwin) aad7122 Dreamcast 2 Jan 21, 2002 12:51 PM


All times are GMT -5. The time now is 02:10 AM.



Powered by vBulletin® Version 3.8.4
Copyright ©2000 - 2018, Jelsoft Enterprises Ltd.
Copyright 1996-2009 CDROM-Guide.com. All rights reserved