CDROM-Guide forums

Go Back   CDROM-Guide forums > Main Forums > Mac User
FAQ Calendar Mark Forums Read
Open   CSec   Data   DevDrv   CoOp   Audio   CDRW   CDG   VCD   DVD   HD DVD   Mac   VGB   PS2   DC   Xbox  


 
 
Thread Tools Display Modes
  #1  
Old Apr 11, 2005, 08:04 AM
Toa Toa is offline
Newbie
 
Join Date: Apr 2005
Posts: 4
Default Sega Saturn iso

sponsored links

 
Hello,

I need help to burn Sega Saturn iso.

Before I want to say that I haven't any problems to burn the games when the files are .bin/.cue

but when the files are .iso+.mp3 (and there is also a .cue) I don't manage to burn it correctly...
sometimes they say to convert the .mp3 to .wav but once it's done I cant' make it work neither...

if anyone can help me please
`thanks

for example there is what a .cue say :

FILE "**** 01.iso" BINARY
TRACK 01 MODE1/2048
INDEX 01 00:00:00
POSTGAP 00:02:00
FILE "**** 02.mp3" MP3
TRACK 02 AUDIO
PREGAP 00:02:00
INDEX 01 00:00:00
FILE "**** 03.mp3" MP3
TRACK 03 AUDIO
INDEX 01 00:00:00
FILE "**** 04.mp3" MP3
TRACK 04 AUDIO
INDEX 01 00:00:00
FILE "**** 05.mp3" MP3
TRACK 05 AUDIO
INDEX 01 00:00:00
...
  #2  
Old Apr 11, 2005, 11:25 AM
Toa Toa is offline
Newbie
 
Join Date: Apr 2005
Posts: 4
Default

when I burn just the .iso in Disk Image with toast the game work but there's no music (coz I don't burn the .wav I know)

in fact I must burn iso+all audio track in one session but I don't know how to do ...

help
  #3  
Old May 17, 2005, 12:23 AM
kof2000 kof2000 is offline
Veteran
 
Join Date: Sep 2000
Location: hawaii
Posts: 1,277
Default

fireburner.
  #4  
Old Aug 15, 2006, 07:49 AM
dabinbin dabinbin is offline
Newbie
 
Join Date: Aug 2006
Posts: 3
Default

frist,download Saturn_MP3-WAV_Converter, convert the mp3 to wav!
second, use Sega Cue Maker creat a CUE file
third, virtual the CUE file with DAEMON Tools!
last,use Alcohol 120% to make a new image and burn it !
 

Thread Tools
Display Modes

Posting Rules
You may not post new threads
You may not post replies
You may not post attachments
You may not edit your posts

BB code is On
Smilies are On
[IMG] code is On
HTML code is Off


Similar Threads
Thread Thread Starter Forum Replies Last Post
FS: Sega CD, Jaguar CD, Sega Saturn, TG-16/Duo CD games! arb226 Legacy Game Backup 1 Mar 15, 2005 11:47 PM
Craxtion 4.0 problem sydd Video Game Backup - Xbox 4 Oct 31, 2004 03:27 AM
Full Tutorial on all ISO Softwares with command line Alexoi Video Game Backup - Xbox 3 Jan 10, 2003 07:50 PM
Sega Saturn question - Anyone knows how to change regional code on Saturn games? spaceship557 Legacy Game Backup 2 Jun 11, 2002 11:11 PM
Sega Saturn Games CrazyHoboD Legacy Game Backup 6 Feb 23, 2002 02:14 PM


All times are GMT -5. The time now is 01:48 PM.



Powered by vBulletin® Version 3.8.4
Copyright ©2000 - 2017, Jelsoft Enterprises Ltd.
Copyright 1996-2009 CDROM-Guide.com. All rights reserved