CDROM-Guide forums

Go Back   CDROM-Guide forums > Main Forums > Legacy Game Backup
FAQ Calendar Mark Forums Read
Open   CSec   Data   DevDrv   CoOp   Audio   CDRW   CDG   VCD   DVD   HD DVD   Mac   VGB   PS2   DC   Xbox  


 
 
Thread Tools Display Modes
  #1  
Old Jul 27, 2006, 06:21 AM
Touching_Evil Touching_Evil is offline
Newbie
 
Join Date: Jul 2006
Posts: 2
Default Neo Geo cd Backups

sponsored links

 
I have a question.

How big is a neo geo cd file that you are gonna burn into a cd and play it on a neo geo cd ???

Is this ones a neo geo cd files that you can burn on a cd and play it on neo geo cd ??? Look and see and please tell me.


***********.mininova.org/det/328015


Would be happy if anyone could help me.
  #2  
Old Aug 16, 2006, 09:09 PM
smobius smobius is offline
Newbie
 
Join Date: Aug 2006
Posts: 6
Default

Quote:
Originally Posted by Touching_Evil
I have a question.

How big is a neo geo cd file that you are gonna burn into a cd and play it on a neo geo cd ???

Is this ones a neo geo cd files that you can burn on a cd and play it on neo geo cd ??? Look and see and please tell me.


***********.mininova.org/det/328015


Would be happy if anyone could help me.
Has anyone found out a way to do this?
  #3  
Old Aug 18, 2006, 07:18 AM
smobius smobius is offline
Newbie
 
Join Date: Aug 2006
Posts: 6
Default

Ok,

This is actually alot easier than I had originally thought. The 1st step is to convert all of your MP3s to WAV files and replace them in the directory you will be working in. Now you must sit down and write a .cue file in order to get the burning program to create a multisession burn with both your data and the sound files. Name the .cue file anything you like and edit it in Wordpad or Notepad.

For example I named mine BurnMe.cue and the text look like this:

FILE "d:\NeoGeoBurnTemp\Metal Slug 2 - Track 01.iso" BINARY
TRACK 01 MODE1/2048
INDEX 01 00:00:00
FILE "d:\NeoGeoBurnTemp\Metal Slug 2 - Track 02.wav" WAVE
TRACK 02 AUDIO
PREGAP 00:02:00
INDEX 01 00:00:00
FILE "d:\NeoGeoBurnTemp\Metal Slug 2 - Track 03.wav" WAVE
TRACK 03 AUDIO
INDEX 01 00:00:00
FILE "d:\NeoGeoBurnTemp\Metal Slug 2 - Track 04.wav" WAVE
TRACK 04 AUDIO
INDEX 01 00:00:00
FILE "d:\NeoGeoBurnTemp\Metal Slug 2 - Track 05.wav" WAVE
TRACK 05 AUDIO
INDEX 01 00:00:00
etc, etc....

And that is really just about it. Once you have listed all the sounds files to be burned onto the disc, just save it and run the .cue file with Nero burning rom. Nero will then decode the .ISO file for you and then slap the audio onto tracks afterwards.

I have fully tested this and it works great. Enjoy!
  #4  
Old Jul 16, 2007, 12:34 PM
BillyG BillyG is offline
Newbie
 
Join Date: Jul 2007
Posts: 3
Default

Quote:
Originally Posted by smobius
Ok,

This is actually alot easier than I had originally thought. The 1st step is to convert all of your MP3s to WAV files and replace them in the directory you will be working in. Now you must sit down and write a .cue file in order to get the burning program to create a multisession burn with both your data and the sound files. Name the .cue file anything you like and edit it in Wordpad or Notepad.

For example I named mine BurnMe.cue and the text look like this:

FILE "d:\NeoGeoBurnTemp\Metal Slug 2 - Track 01.iso" BINARY
TRACK 01 MODE1/2048
INDEX 01 00:00:00
FILE "d:\NeoGeoBurnTemp\Metal Slug 2 - Track 02.wav" WAVE
TRACK 02 AUDIO
PREGAP 00:02:00
INDEX 01 00:00:00
FILE "d:\NeoGeoBurnTemp\Metal Slug 2 - Track 03.wav" WAVE
TRACK 03 AUDIO
INDEX 01 00:00:00
FILE "d:\NeoGeoBurnTemp\Metal Slug 2 - Track 04.wav" WAVE
TRACK 04 AUDIO
INDEX 01 00:00:00
FILE "d:\NeoGeoBurnTemp\Metal Slug 2 - Track 05.wav" WAVE
TRACK 05 AUDIO
INDEX 01 00:00:00
etc, etc....

And that is really just about it. Once you have listed all the sounds files to be burned onto the disc, just save it and run the .cue file with Nero burning rom. Nero will then decode the .ISO file for you and then slap the audio onto tracks afterwards.

I have fully tested this and it works great. Enjoy!
Hi [B]smobius[/B]

When you burned the image on CD with Nero, did you have to burn it at certain speed? or do you have to burn it at 4x or slower like someone else stated in another thread? Because my CD writer's lowest speed is 8x & I'm having trouble finding an old cd writer, thanks to anyone who can answer my questions
  #5  
Old Jul 16, 2007, 05:15 PM
Insomniac Insomniac is offline
Veteran
 
Join Date: Jul 2000
Location: Sydney, Australia. Where else would you want to live?
Posts: 5,746
Default

There's only one thing worse than a thief, and that's a dumb one.........
  #6  
Old Jul 16, 2007, 06:43 PM
BillyG BillyG is offline
Newbie
 
Join Date: Jul 2007
Posts: 3
Default

Quote:
Originally Posted by Insomniac
There's only one thing worse than a thief, and that's a dumb one.........
Thanks for your input

I only asked a question, which you didn't have to reply to
 

Thread Tools
Display Modes

Posting Rules
You may not post new threads
You may not post replies
You may not post attachments
You may not edit your posts

BB code is On
Smilies are On
[IMG] code is On
HTML code is Off


Similar Threads
Thread Thread Starter Forum Replies Last Post
Neo geo roms on PS2 bigb32 Video Game Backup - PS2 3 Oct 19, 2003 12:31 AM
Neo Geo in mame richbambam Video Game Backup - Xbox 3 Dec 31, 2002 01:05 PM
Hi peops is there a NEO GEO emulator that plays.............. soner44 Video Game Backup - Xbox 2 Oct 23, 2002 10:26 AM
Neo 4- having trouble reading new PS2 backups chek1234 Video Game Backup - PS2 2 Sep 11, 2002 08:36 PM
Edited Upuro modchip faq...lets get things straight ! Channel Tech Video Game Backup - PS2 10 May 06, 2002 11:09 AM


All times are GMT -5. The time now is 06:22 AM.



Powered by vBulletin® Version 3.8.4
Copyright ©2000 - 2017, Jelsoft Enterprises Ltd.
Copyright 1996-2009 CDROM-Guide.com. All rights reserved