CDROM-Guide forums

Go Back   CDROM-Guide forums > Main Forums > Legacy Game Backup
FAQ Calendar Mark Forums Read
Open   CSec   Data   DevDrv   CoOp   Audio   CDRW   CDG   VCD   DVD   HD DVD   Mac   VGB   PS2   DC   Xbox  


 
 
Thread Tools Display Modes
  #1  
Old Dec 21, 2006, 08:01 AM
richg101 richg101 is offline
Newbie
 
Join Date: Dec 2006
Posts: 3
Default

sponsored links

 
hey there.

im trying to burn some downloaded iso's so i can play them on my neogeo cd console (not cdz).

i have followed smobius's tutorial. i converted the mp3's to wav. and adjusted the cue sheet accordingly. for some reason the games will not boot/run on my neo geo cd. it takes you to the standard screen - as it is when you first start the console up(like a cd player screen). and you can manually choose and play the audio files of the game. the first track (i guess the iso) plays as if it was a audio file, but with no sound coming out.

please can you tell me what im doing wrong?

this is what my cue sheet looks like:-

FILE "Fatal Fury 2.iso" BINARY
TRACK 01 MODE1/2352
INDEX 01 00:00:00
FILE "Fatal Fury 2 02.wav" WAVE
TRACK 02 AUDIO
PREGAP 00:03:00
INDEX 01 00:00:00
FILE "Fatal Fury 2 03.wav" WAVE
TRACK 03 AUDIO
INDEX 01 00:00:00
FILE "Fatal Fury 2 04.wav" WAVE
TRACK 04 AUDIO
INDEX 01 00:00:00
FILE "Fatal Fury 2 05.wav" WAVE
TRACK 05 AUDIO
INDEX 01 00:00:00
FILE "Fatal Fury 2 06.wav" WAVE
TRACK 06 AUDIO
INDEX 01 00:00:00
FILE "Fatal Fury 2 07.wav" WAVE
TRACK 07 AUDIO
INDEX 01 00:00:00
FILE "Fatal Fury 2 08.wav" WAVE
TRACK 08 AUDIO
INDEX 01 00:00:00
FILE "Fatal Fury 2 09.wav" WAVE
TRACK 09 AUDIO
INDEX 01 00:00:00
FILE "Fatal Fury 2 10.wav" WAVE
TRACK 10 AUDIO
INDEX 01 00:00:00
FILE "Fatal Fury 2 11.wav" WAVE
TRACK 11 AUDIO
INDEX 01 00:00:00
FILE "Fatal Fury 2 12.wav" WAVE
TRACK 12 AUDIO
INDEX 01 00:00:00
FILE "Fatal Fury 2 13.wav" WAVE
TRACK 13 AUDIO
INDEX 01 00:00:00
FILE "Fatal Fury 2 14.wav" WAVE
TRACK 14 AUDIO
INDEX 01 00:00:00
FILE "Fatal Fury 2 15.wav" WAVE
TRACK 15 AUDIO
INDEX 01 00:00:00
FILE "Fatal Fury 2 16.wav" WAVE
TRACK 16 AUDIO
INDEX 01 00:00:00
FILE "Fatal Fury 2 17.wav" WAVE
TRACK 17 AUDIO
INDEX 01 00:00:00
FILE "Fatal Fury 2 18.wav" WAVE
TRACK 18 AUDIO
INDEX 01 00:00:00
FILE "Fatal Fury 2 19.wav" WAVE
TRACK 19 AUDIO
INDEX 01 00:00:00
FILE "Fatal Fury 2 20.wav" WAVE
TRACK 20 AUDIO
INDEX 01 00:00:00
FILE "Fatal Fury 2 21.wav" WAVE
TRACK 21 AUDIO
INDEX 01 00:00:00
FILE "Fatal Fury 2 22.wav" WAVE
TRACK 22 AUDIO
INDEX 01 00:00:00
FILE "Fatal Fury 2 23.wav" WAVE
TRACK 23 AUDIO
INDEX 01 00:00:00
FILE "Fatal Fury 2 24.wav" WAVE
TRACK 24 AUDIO
INDEX 01 00:00:00
FILE "Fatal Fury 2 25.wav" WAVE
TRACK 25 AUDIO
INDEX 01 00:00:00
FILE "Fatal Fury 2 26.wav" WAVE
TRACK 26 AUDIO
INDEX 01 00:00:00
FILE "Fatal Fury 2 27.wav" WAVE
TRACK 27 AUDIO
INDEX 01 00:00:00
 

Thread Tools
Display Modes

Posting Rules
You may not post new threads
You may not post replies
You may not post attachments
You may not edit your posts

BB code is On
Smilies are On
[IMG] code is On
HTML code is Off


Similar Threads
Thread Thread Starter Forum Replies Last Post
Duo2 And V9 Console boomtheroom PS2 Modchip Help & Installation 1 Jan 19, 2005 05:19 PM
How to return an X-box console for a refund (wal-mart) billyhoes Video Game Backup - Xbox 2 Oct 28, 2003 05:22 AM
New Sony console revealed (NOT PS3) TrueGamers Video Game Backup - PS2 2 Jun 14, 2003 01:09 AM
booting to recovery console aye Open to All Computer Related Topics 5 May 28, 2003 05:45 AM
major problem L337 |-|axor Open to All Computer Related Topics 8 Jan 12, 2003 06:42 PM


All times are GMT -5. The time now is 05:55 AM.



Powered by vBulletin® Version 3.8.4
Copyright ©2000 - 2017, Jelsoft Enterprises Ltd.
Copyright 1996-2009 CDROM-Guide.com. All rights reserved