CDROM-Guide forums

Go Back   CDROM-Guide forums > Main Forums > Video Game Backup - PS2
FAQ Calendar Mark Forums Read
Open   CSec   Data   DevDrv   CoOp   Audio   CDRW   CDG   VCD   DVD   HD DVD   Mac   VGB   PS2   DC   Xbox  


 
 
Thread Tools Display Modes
  #1  
Old Apr 22, 2002, 07:54 PM
tsay2cx tsay2cx is offline
Veteran
 
Join Date: Sep 2000
Posts: 1,328
Default can you burn a bin file without the cue file??

sponsored links

 
I downloaded a game in .Bin format, and I didn't get the cue file, just wondering if the game will burn properly without the cue file.. is it absolutely necessary to try and get the cue file for it..
  #2  
Old Apr 22, 2002, 07:57 PM
syntaxx syntaxx is offline
Veteran
 
Join Date: Jun 2001
Posts: 703
Default

i think that you can burn it with fireburner....but i'm not too sure if the game will be bugged or not...but it's worth a try all you have to lose is a blank cdr
  #3  
Old Apr 22, 2002, 08:06 PM
toadster123 toadster123 is offline
Veteran
 
Join Date: Jul 2001
Posts: 633
Default

yea u can. i always do...
i dont even know what the .cue file is for??????

i use discjuggler
  #4  
Old Apr 22, 2002, 08:09 PM
dragonluv dragonluv is offline
Junior Member
 
Join Date: Jan 2002
Posts: 35
Default

All a cue file conatins is text telling it what the format and type of burn to perform: Here is an example: Name the file the same as the bin IE abc.cue but you do have to know what mode to burn in etc to set it up correctly

Hope this helps

FILE "ABC.BIN" BINARY
TRACK 01 MODE1/2352
INDEX 01 00:00:00
TRACK 02 AUDIO
PREGAP 00:04:00
INDEX 01 06:02:26
TRACK 03 AUDIO
INDEX 00 06:02:27
INDEX 01 06:02:28
TRACK 04 AUDIO
INDEX 01 06:02:30
TRACK 05 AUDIO
INDEX 00 06:02:31
INDEX 01 06:02:32
TRACK 06 AUDIO
INDEX 01 06:02:34
TRACK 07 MODE1/2352
PREGAP 00:03:00
INDEX 01 06:06:35
TRACK 08 AUDIO
PREGAP 00:07:00
INDEX 01 58:47:02
TRACK 09 AUDIO
INDEX 01 58:47:03
TRACK 10 AUDIO
INDEX 01 58:47:05
TRACK 11 AUDIO
INDEX 01 58:47:09
TRACK 12 AUDIO
INDEX 01 58:47:17
TRACK 13 AUDIO
INDEX 01 58:47:33
TRACK 14 AUDIO
INDEX 01 58:47:65
TRACK 15 AUDIO
INDEX 01 58:48:54
TRACK 16 AUDIO
INDEX 01 58:50:32
TRACK 17 AUDIO
INDEX 01 58:53:63
TRACK 18 AUDIO
INDEX 01 59:00:50
TRACK 19 AUDIO
INDEX 01 59:14:24
TRACK 20 AUDIO
INDEX 01 59:31:29
TRACK 21 AUDIO
INDEX 01 59:51:65
TRACK 22 AUDIO
INDEX 01 60:15:57
TRACK 23 AUDIO
INDEX 01 60:43:05
TRACK 24 AUDIO
INDEX 01 61:13:59
TRACK 25 AUDIO
INDEX 01 61:47:69
TRACK 26 AUDIO
INDEX 01 62:25:35
TRACK 27 AUDIO
INDEX 01 63:06:32
TRACK 28 AUDIO
INDEX 01 63:50:60
TRACK 29 AUDIO
INDEX 01 64:38:44
TRACK 30 AUDIO
INDEX 01 65:29:59
TRACK 31 AUDIO
INDEX 01 66:24:30
TRACK 32 AUDIO
INDEX 00 66:24:31
INDEX 01 66:24:32
TRACK 33 AUDIO
INDEX 01 66:24:34
TRACK 34 AUDIO
INDEX 01 66:24:35
  #5  
Old Apr 22, 2002, 08:13 PM
ultimatedcgamer ultimatedcgamer is offline
Member
 
Join Date: Jan 2002
Posts: 86
Default

U can also use disk juggler with out a cue just open and click browse in the forlder where the bin is go down to the drop down menu click show all files and the bin will show click on it and then open then burn as normal leave all settings alone. I have done it tons of times without a prob
  #6  
Old Apr 22, 2002, 11:40 PM
Idiotrat Idiotrat is offline
Member
 
Join Date: Oct 2001
Posts: 163
Default

i use a mac and Toast 5.x Titanium and i never bother with the .cue file
that is, if you have one
if you don't, try to see if it'll burn without the .cue file, as you only have a coaster (unless its DVD, then VERY expensive coaster)
 

Thread Tools
Display Modes

Posting Rules
You may not post new threads
You may not post replies
You may not post attachments
You may not edit your posts

BB code is On
Smilies are On
[IMG] code is On
HTML code is Off


Similar Threads
Thread Thread Starter Forum Replies Last Post
œœBurning DC Games 4 Dummiesœœ holyniht Mac User 5 Jan 15, 2006 04:45 PM
How Do I Burn A Bine File Just A Bin No Cue Using Nero Express BILL YATES VideoCD 6 Sep 10, 2003 10:20 PM
How Do I Burn Svcd Without A Cue File? BIG_TEZZ VideoCD 1 Aug 30, 2003 10:49 PM
bin file..no cue sheet hwjchim Legacy Game Backup 4 Apr 17, 2003 06:40 AM
burning a bin file without the cue tecnotec Legacy Game Backup 2 Jun 03, 2002 04:45 PM


All times are GMT -5. The time now is 05:46 AM.



Powered by vBulletin® Version 3.8.4
Copyright ©2000 - 2017, Jelsoft Enterprises Ltd.
Copyright © 1996-2009 CDROM-Guide.com. All rights reserved